Интернет-форум

Вернуться   Интернет в Санкт-Петербурге > Разное > Музыка

>> Хостинг - 2 Gb-20 Gb, CPanel, SSH, Web Disk, Softaculous, FTP, MySql, SSL сертификат, BackUP
>> VDS от 200 рублей, активация от 1 до 5 минут, OS: Debian, CentOs, Ubuntu, 10-50 Gb защита от DDoS
>> Конструктор сайтов: 198 шаблонов в 22 категориях! SSL, e-commerce, веб-почта, статистика сайта, 50 мб бесплатно!
Музыка Все о музыке - обсуждения, поиск, обмен.

 
Опции темы
Старый 21.05.2017, 22:52
  #21
Долгожитель

Музыка в интернет попадает либо через рип диска, либо из уже цифрового релиза от издателя.
Музыку рипают и выкладывают на закрытых трекерах. От туда уже в открытые и далее. А на закрытых трекерах есть правила - только mp3 и flac. Никакого ogg или acc. Хотя в свете последних новостей может acc разрешат.
Mp3 релиз для жалеют из flac или wav. Ибо только в этих форматах рипают диски и есть логи этих рипов. Без логов раздачу не аппрувят.
Kuja вне форума   Ответить с цитированием
Старый 22.05.2017, 09:38
  #22
Долгожитель

Цитата:
Сообщение от dimentiy
На многую современную аппаратуру - то же многие жалуются на свист импульсных блоков питания. Вероятно экономят на амортизации и качестве дросселей и трансформаторов.
Дело не в дросселях и трансформаторах. Схему и разводку делают так, что дроссели и трансформаторы работают в режимах, когда они свистят. Стоит чуть поменять схему, и свист прекращается.
Наглядный пример -- когда берёшь в руки две примерно одинаковые платы с совершенно одинаковыми дросселями, но одна свистит, а другая нет.
Yegor001 вне форума   Ответить с цитированием
Старый 22.05.2017, 10:24
  #23
Мастер
 
Аватар для Smulev

Yegor001,
Дроссели и трансформаторы пропитывают специальным лаком, тогда они не свистят, даже при неудачной схемотехнике. Но это дорого, поэтому на этой операции производитель часто экономит.
Цитата:
Сообщение от Yegor001
когда берёшь в руки две примерно одинаковые платы с совершенно одинаковыми дросселями, но одна свистит, а другая нет.
Смотришь на них, чешешь репу, затем перепаиваешь кондёры местами наоборот, и свистеть начинает уже другая плата.
Smulev вне форума   Ответить с цитированием
Старый 22.05.2017, 14:04
  #24
Долгожитель

Smulev, свистеть может и с заводской пропиткой. Возможно, зависит от пропитки или от материала корпуса.

Все дроссели, что сам пропитывал или эпоксидкой заливал, все продолжали свистеть, только гораздо тише. Магнитострикцию не убрать одной только жёсткой фиксацией обмотки. Надо ещё со схемой что-то делать.

Про кондёры -- примерно это я и имел в виду, говоря про схемотехнику.
Yegor001 вне форума   Ответить с цитированием
Старый 22.05.2017, 15:10
  #25
Рассказчик

Слушаете музыку вконтакте? Знаете какой там формат?

Скрыто содержимое: HQ


Формат музыкальных новинок.
General
Format : MPEG Audio
File size : 1.00 MiB
Duration : 26s 206ms
Overall bit rate mode : Constant
Overall bit rate : 320 Kbps

Audio
Format : MPEG Audio
Format version : Version 1
Format profile : Layer 3
Duration : 26s 226ms
Bit rate mode : Constant
Bit rate : 320 Kbps
Channel(s) : 2 channels
Sampling rate : 44.1 KHz
Compression mode : Lossy
Stream size : 1 024 KiB (100%)



Скрыто содержимое: Not HQ 256

General
Format : MPEG Audio
File size : 1.00 MiB
Duration : 31s 320ms
Overall bit rate mode : Constant
Overall bit rate : 256 Kbps
Track name : Выпускной (Медлячок) vk.com/vkMyz
Performer : Баста
Recorded date : 2016
Writing library : Lavf57.36.100
Copyright : ℗ 2016 Национальное музыкальное Издательство по исключительной лицензии Gazgolder
Cover : Yes
Cover type : Cover (front)
Cover MIME : image/jpeg
Comment : ЛУЧШАЯ МУЗЫКА vk.com/vkMyz

Audio
Format : MPEG Audio
Format version : Version 1
Format profile : Layer 3
Duration : 31s 346ms
Bit rate mode : Constant
Bit rate : 256 Kbps
Channel(s) : 2 channels
Sampling rate : 44.1 KHz
Compression mode : Lossy
Stream size : 979 KiB (96%)


Скрыто содержимое: Not HQ 224

General
Format : MPEG Audio
File size : 1.00 MiB
Duration : 37s 438ms
Overall bit rate mode : Constant
Overall bit rate : 224 Kbps

Audio
Format : MPEG Audio
Format version : Version 1
Format profile : Layer 3
Mode : Joint stereo
Duration : 37s 440ms
Bit rate mode : Constant
Bit rate : 224 Kbps
Channel(s) : 2 channels
Sampling rate : 48.0 KHz
Compression mode : Lossy
Stream size : 1 024 KiB (100%)


Скрыто содержимое: Not HQ 192

General
Format : MPEG Audio
File size : 1.00 MiB
Duration : 43s 665ms
Overall bit rate mode : Constant
Overall bit rate : 192 Kbps

Audio
Format : MPEG Audio
Format version : Version 1
Format profile : Layer 3
Mode : Joint stereo
Duration : 43s 728ms
Bit rate mode : Constant
Bit rate : 192 Kbps
Channel(s) : 2 channels
Sampling rate : 44.1 KHz
Compression mode : Lossy
Stream size : 1 023 KiB (100%)


А вот mp3-шка, которую сам делал и залил в вк, похоже никакого трансдекодирования не произошло.
Скрыто содержимое: mono mp3

General
Format : MPEG Audio
File size : 1.00 MiB
Duration : 32s 762ms
Overall bit rate mode : Constant
Overall bit rate : 256 Kbps

Audio
Format : MPEG Audio
Format version : Version 1
Format profile : Layer 3
Duration : 32s 809ms
Bit rate mode : Constant
Bit rate : 256 Kbps
Channel(s) : 1 channel
Sampling rate : 44.1 KHz
Compression mode : Lossy
Stream size : 1 024 KiB (100%)


P.S. Файлы wma никогда не пробовал в вк заливать. Только сейчас внимание обратил, в вк можно заливать одни лишь mp3.

Последний раз редактировалось Viktor; 23.05.2017 в 15:14.. Причина: Добавил мысли про трансдекордирование.
Viktor вне форума   Ответить с цитированием
Старый 22.05.2017, 15:24
  #26
Мастер
 
Аватар для dimentiy


Знак Ветерана: Активному участнику с 2004 года - причина:  
Наград: 1 (все ...)
Цитата:
Сообщение от Viktor Посмотреть сообщение
Слушаете музыку вконтакте? Знаете какой там формат?
Никогда не пробовал, но знаю и о таких:
Hi-Fi интернет-радио в формате Ogg Vorbis и Flac "Сектор"

Цитата:
Никакого трансдекодирования, никаких убогих mp3, wma и других подобных форматов
!
dimentiy вне форума   Ответить с цитированием
Старый 22.05.2017, 20:01
  #27
Гуру
 
Аватар для Haruhi

Viktor, а что вас удивляет? У Google Play Music тоже MP3, да еще и 192 kbps VBR, если память не изменяет. Apple, естественно, использует AAC.

У меня практически вся музыка в лосслесс форматах, а для мобильных устройств я ее загоняю в 400 kbps AAC. Кому что больше нравится…
Haruhi вне форума   Ответить с цитированием
Старый 22.05.2017, 20:31
  #28
Мастер
 
Аватар для Злобный Слон


За посильный вклад: За материальную помощь форуму - причина:  
Наград: 1 (все ...)
Цитата:
Сообщение от Haruhi
У Google Play Music тоже MP3, да еще и 192 kbps VBR
Кажется, у них все же 320 kbps CBR
Злобный Слон вне форума   Ответить с цитированием
Старый 22.05.2017, 22:36
  #29
Рассказчик

Цитата:
Сообщение от Haruhi Посмотреть сообщение
Viktor, а что вас удивляет?
С моей точки зрения разницы между mp3 320 kbps и 256 kbps почти никакой, зачем они в ui нарисовали значок HQ?
Надо будет посмотреть, что вк делает с форматами wma и aac ...
...
Ничего с ними не делает, пропускает только mp3 формат.

Последний раз редактировалось Viktor; 23.05.2017 в 15:16.. Причина: про vk.com и mp3 добавил
Viktor вне форума   Ответить с цитированием
Старый 22.05.2017, 23:36
  #30
Гуру
 
Аватар для Haruhi

Цитата:
Сообщение от Злобный Слон
Кажется, у них все же 320 kbps CBR
Сразу после запуска сервиса было VBR и 192 kbps. Это совершенно точно — я в самом Chrome смотрела метаданные и параметры потока.
Haruhi вне форума   Ответить с цитированием
Ответ

Опции темы

Ваши права в разделе
Вы не можете создавать новые темы
Вы не можете отвечать в темах
Вы не можете прикреплять вложения
Вы не можете редактировать свои сообщения

BB коды Вкл.
Смайлы Вкл.
[IMG] код Вкл.
HTML код Выкл.

Быстрый переход

Похожие темы
Тема Автор Раздел Ответов Последнее сообщение
Умер винчестер? Dimon27 Технические проблемы 6 25.12.2008 22:30
тем временем foto cod умер noway "Ростелеком-Северо-Запад" 41 27.07.2008 18:22
Умер Хит Леджер !!! project_one Фильмы/TV 8 06.04.2008 22:47
Умер Егор Летов Primarh Флейм 1 23.02.2008 10:29
5.12.06 умер Касперский 6 waveless Все о софте 110 14.01.2008 20:18


Часовой пояс GMT +3, время: 07:07.


DSLnet.ru © 2004-2012. Все права защищены.
vBulletin® Version 3.8.2 Copyright ©2000 - 2018, Jelsoft Enterprises Ltd.
Rambler's Top100 Рейтинг@Mail.ru